Joker.2019.HC.HDCam.XviD.B4ND1T69

Added Time : 2 weeks ago

Last Update : 1 day ago Update Tracker

Seeders : 1,562

Leechers : 505

Category : Movies

Type : Divx/Xvid

Size : 1.17 GB

Total Files : 6

Uploader : B4ND1T69

infohash : 6e028832ecea87bfa7ad3f6e69f7f09f9c4a2c5a

Joker.2019.HC.HDCam.XviD.B4ND1T69

Warning! Always use a VPN When Downloading Torrents!

Your leaked IP address 18.208.186.19 reveals your location from Ashburn, United States / Canada.
Do NOT download any torrent before hiding your IP with a VPN.
HIDE ME NOW

Description :

Joker.2019.HC.HDCam.XviD.B4ND1T69



Director: Todd Phillips
Writers: Todd Phillips, Scott Silver
Stars: Joaquin Phoenix, Robert De Niro, Zazie Beetz

Plot/Story:
In Gotham City, mentally-troubled comedian Arthur Fleck is disregarded and mistreated by society. He then embarks on a downward spiral of revolution and bloody crime. This path brings him face-to-face with his alter-ego: "The Joker".

Notes:
Clean print, NO ads, text or floaty crap.
Used 2 sources to make this, rotated the images, cropped off any rough edges, gave it a clean to remove noise and flicker, resized it and resynced to nice clean audio. Samples included(3)...Enjoy.

General
Complete name               : Joker.2019.HC.HDCam.XviD.B4ND1T69.avi
Format                      : AVI
Format/Info                 : Audio Video Interleave
Format profile              : OpenDML
File size                   : 1.13 GiB
Duration                    : 1 h 55 min
Overall bit rate            : 1 396 kb/s
Sample                      : Yes...Included(3)

Video
ID                          : 0
Format                      : MPEG-4 Visual
Format profile              : Advanced [email protected]
Format settings, BVOP       : 2
Format settings, QPel       : No
Format settings, GMC        : No warppoints
Format settings, Matrix     : Default (H.263)
Codec ID                    : XVID
Codec ID/Hint               : XviD
Duration                    : 1 h 55 min
Bit rate                    : 1 250 kb/s
Width                       : 720 pixels
Height                      : 352 pixels
Display aspect ratio        : 2.045
Frame rate                  : 30.000 FPS
Color space                 : YUV
Chroma subsampling          : 4:2:0
Bit depth                   : 8 bits
Scan type                   : Progressive
Compression mode            : Lossy
Bits/(Pixel*Frame)          : 0.164
Stream size                 : 1.01 GiB (90%)
Writing library             : XviD 64

Audio
ID                          : 1
Format                      : MPEG Audio
Format version              : Version 1
Format profile              : Layer 3
Mode                        : Joint stereo
Codec ID                    : 55
Codec ID/Hint               : MP3
Duration                    : 1 h 55 min
Bit rate mode               : Constant
Bit rate                    : 128 kb/s
Channel(s)                  : 2 channels
Sampling rate               : 48.0 kHz
Compression mode            : Lossy
Stream size                 : 106 MiB (9%)
Alignment                   : Aligned on interleaves
Interleave, duration        : 24  ms (0.72 video frame)

Screenshots:

https://i.imgur.com/ynZvYiu.png
https://i.imgur.com/ZLEII2t.png
https://i.imgur.com/p3yy8FY.png
https://i.imgur.com/xfE8KKg.png
https://i.imgur.com/O9hUu3F.png
https://i.imgur.com/vnmaqSI.png
https://i.imgur.com/BJtcEZW.png
https://i.imgur.com/DbkxSuK.png









Please Seed For As Long As Possible
Or At Least 1:1 Ratio...Thanks
Enjoy Peeps


Torrent Files

  • 61 B 1337x text file.txt
  • 139 B Downloaded from katcr.co.txt
  • 10.2 MB Sample.3.avi
  • 13 MB Sample.2.avi
  • 17.3 MB Sample.1.avi
  • 1.13 GB Joker.2019.HC.HDCam.XviD.B4ND1T69.avi
Related Torrent

Comments

Login to Post Comments