Rambo.Last.Blood.2019.1080p.KORSUB.HDRip.x264.AAC2.0-STUTTERSHIT

Added Time : 3 weeks ago

Last Update : 9 hours ago Update Tracker

Seeders : 807

Leechers : 326

Size : 3.2 GB

Total Files : 3

infohash : ecfa0e9bc730231396cbeba93d243e76b8dfb758

Rambo.Last.Blood.2019.1080p.KORSUB.HDRip.x264.AAC2.0-STUTTERSHIT

Warning! Always use a VPN When Downloading Torrents!

Your leaked IP address 3.234.214.179 reveals your location from Ashburn, United States / Spain / Bulgaria.
Do NOT download any torrent before hiding your IP with a VPN.
HIDE ME NOW

Description :



Plot: Almost four decades after they drew first blood, Sylvester Stallone is back as one of the greatest action heroes of all time, John Rambo. Now, Rambo must confront his past and unearth his ruthless combat skills to exact revenge in a final mission. A deadly journey of vengeance, RAMBO: LAST BLOOD marks the last chapter of the legendary series.

Genre: Action | Adventure | Thriller
IMDB Rating: 6.7/10 From 23,991 Users
Directed by: Adrian Grunberg
Starring: Sylvester Stallone , Paz Vega , Sergio Peris-Mencheta , Adriana Barraza

Video
ID : 1
Format : AVC
Format/Info : Advanced Video Codec
Format profile : [email protected]
Format settings : CABAC / 4 Ref Frames
Format settings, CABAC : Yes
Format settings, Reference frames : 4 frames
Codec ID : V_MPEG4/ISO/AVC
Duration : 1 h 30 min
Bit rate : 4 800 kb/s
Width : 1 920 pixels
Height : 800 pixels
Display aspect ratio : 2.40:1
Frame rate mode : Constant
Frame rate : 30.000 FPS
Color space : YUV
Chroma subsampling : 4:2:0
Bit depth : 8 bits
Scan type : Progressive
Bits/(Pixel*Frame) : 0.104
Stream size : 3.04 GiB (95%)
Title : Rambo.Last.Blood.2019.1080p.KORSUB.HDRip.x264.AAC2.0-STUTTERSHIT
Writing library : x264 core 148 r2748 97eaef2
Encoding settings : cabac=1 / ref=4 / deblock=1:0:0 / analyse=0x3:0x113 / me=umh / subme=9 / psy=1 / psy_rd=1.00:0.00 / mixed_ref=1 / me_range=16 / chroma_me=1 / trellis=2 / 8x8dct=1 / cqm=0 / deadzone=21,11 / fast_pskip=1 / chroma_qp_offset=-2 / threads=72 / lookahead_threads=6 / sliced_threads=0 / nr=0 / decimate=1 / interlaced=0 / bluray_compat=0 / constrained_intra=0 / bframes=3 / b_pyramid=2 / b_adapt=2 / b_bias=0 / direct=3 / weightb=1 / open_gop=0 / weightp=2 / keyint=250 / keyint_min=25 / scenecut=40 / intra_refresh=0 / rc_lookahead=50 / rc=abr / mbtree=1 / bitrate=4800 / ratetol=1.0 / qcomp=0.60 / qpmin=0 / qpmax=69 / qpstep=4 / ip_ratio=1.40 / aq=1:1.00
Language : English
Default : Yes
Forced : No

Audio
ID : 2
Format : AAC LC
Format/Info : Advanced Audio Codec Low Complexity
Codec ID : A_AAC-2
Duration : 1 h 30 min
Bit rate : 256 kb/s
Channel(s) : 2 channels
Channel layout : L R
Sampling rate : 48.0 kHz
Frame rate : 46.875 FPS (1024 SPF)
Compression mode : Lossy
Stream size : 166 MiB (5%)
Title : Rambo.Last.Blood.2019.1080p.KORSUB.HDRip.x264.AAC2.0-STUTTERSHIT
Language : English
Default : Yes
Forced : No


Torrent Files

  • 11.8 KB English-FORCED.srt
  • 31 B RARBG.txt
  • 3.2 GB Rambo.Last.Blood.2019.1080p.KORSUB.HDRip.x264.AAC2.0-STUTTERSHIT.mkv

Comments

Login to Post Comments